So, do yo really want fixed 24fps video recording? - Page 15 - Samsung i8910 Omnia HD User Forums 0){document.location.href='showthread.php?p='+cpostno;};} }">
 
i8910 HD Blog i8910 Omnia HD Firmware i8910 HD Themes Optimus 2X Forums Galaxy S Forums PSP Hacks PS3 Hacks

Go Back   Samsung i8910 Omnia HD User Forums > Samsung i8910 Omnia HD Discussion > Samsung i8910 Omnia HD Modifications and Hacks

Reply
 
LinkBack Thread Tools Display Modes
  #141 (permalink)  
Old 04-04-2010, 07:38 PM
Fevves's Avatar
@bstract Journeyman
 
Join Date: Jul 2009
Location: Behind your screen...
Posts: 2,663
Thanks: 404
Thanked 765 Times in 450 Posts
Fevves is on a distinguished road
Default

Well, in pretty usual light conditions and without panning like a madman I can't see it stuttering. Not that it's 'oh so smooth' like real HD camcorder, but I experienced stutters before I got it clean like it is now. So yes, I don't have stuttering before and while recording in HD.

See here, I just recorded and uploaded it:

http://www.youtube.com/watch?v=kWMlbRetIaE
__________________
If you're to win, you can't afford to lose!
If you think life sucks... go contemplate the other possibility!
----------------------------------------------------------

Read & obey Global Forum Rules, GUI section Rules, Netiquette, common sense and post accordingly.
Digg this Post!Add Post to del.icio.usBookmark Post in TechnoratiFurl this Post!
Reply With Quote
Sponsored Links
Advertisement
 
  #142 (permalink)  
Old 04-08-2010, 04:14 AM
Senior Member
 
Join Date: Jan 2010
Posts: 260
Thanks: 16
Thanked 6 Times in 5 Posts
ashtan is on a distinguished road
Default

The stutters will be obvious when you pan the cam corder mode slowly.

It'll show up as little jumps in frames
Trust me, it's there! Even before starting recording, it's there!
Digg this Post!Add Post to del.icio.usBookmark Post in TechnoratiFurl this Post!
Reply With Quote
  #143 (permalink)  
Old 05-08-2010, 09:06 PM
Junior Member
 
Join Date: Sep 2009
Location: India
Posts: 25
Thanks: 4
Thanked 1 Time in 1 Post
gold_heart007 is on a distinguished road
Send a message via Yahoo to gold_heart007
Default

just copied those files mentioned by Wireless.
Rebooted the phone and then recorded the video at 720p.
Here are the details, showed by MediaCoder:-

Format : MPEG-4
Format profile : Base Media / Version 2
Codec ID : mp42
File size : 186 MiB
Duration : 3mn 20s
Overall bit rate : 7 759 Kbps
Encoded date : UTC 2010-05-08 18:18:18
Tagged date : UTC 2010-05-08 18:18:18

Video
ID : 1
Format : MPEG-4 Visual
Format profile : Simple@L6
Format settings, BVOP : No
Format settings, QPel : No
Format settings, GMC : No warppoints
Format settings, Matrix : Default (H.263)
Codec ID : 20
Duration : 3mn 20s
Bit rate mode : Variable
Bit rate : 7 664 Kbps
Nominal bit rate : 7 550 Kbps
Maximum bit rate : 8 389 Kbps
Width : 1 280 pixels
Height : 720 pixels
Display aspect ratio : 16:9
Frame rate mode : Variable
Frame rate : 23.976 fps
Minimum frame rate : 12.000 fps
Maximum frame rate : 24.000 fps
Resolution : 8 bits
Colorimetry : 4:2:0
Scan type : Progressive
Bits/(Pixel*Frame) : 0.347
Stream size : 184 MiB (99%)
Encoded date : UTC 2010-05-08 18:18:18
Tagged date : UTC 2010-05-08 18:18:18

Audio
ID : 2
Format : AAC
Format/Info : Advanced Audio Codec
Format version : Version 4
Format profile : LC
Format settings, SBR : No
Codec ID : 40
Duration : 3mn 20s
Bit rate mode : Constant
Bit rate : 96.0 Kbps
Channel(s) : 1 channel
Channel positions : Front: C
Sampling rate : 16.0 KHz
Stream size : 2.26 MiB (1%)
Encoded date : UTC 2010-05-08 18:18:18
Tagged date : UTC 2010-05-08 18:18:18

Well, what can i say? Thanks and God Bless You, bro.
__________________
Nothing Ever Ends....!

Last edited by gold_heart007; 05-08-2010 at 09:08 PM.
Digg this Post!Add Post to del.icio.usBookmark Post in TechnoratiFurl this Post!
Reply With Quote
The Following User Says Thank You to gold_heart007 For This Useful Post:
mdsflyer (06-06-2010)
 
  #144 (permalink)  
Old 06-18-2010, 08:52 AM
Member
 
Join Date: Dec 2009
Posts: 57
Thanks: 11
Thanked 4 Times in 4 Posts
vaibhav_etrx is on a distinguished road
Default

i am sry i am asking such a question but where do i need o copy these files and which ones shud i replace
Digg this Post!Add Post to del.icio.usBookmark Post in TechnoratiFurl this Post!
Reply With Quote
  #145 (permalink)  
Old 06-18-2010, 09:15 AM
DSA's Avatar
DSA DSA is offline
Dark Modder
 
Join Date: Jan 2010
Posts: 707
Thanks: 224
Thanked 174 Times in 114 Posts
DSA is on a distinguished road
Default

Quote:
Originally Posted by vaibhav_etrx View Post
i am sry i am asking such a question but where do i need o copy these files and which ones shud i replace
its all in the first post on the first page

download whats needed and it tells you where to put it
__________________

www.darksideagent.com/darksidegalaxys2forums

Phone: SGSII
Rom: XWLP9 CodecROM 5.7 by DSANo longer active on forum

Last edited by DSA; 06-18-2010 at 09:17 AM.
Digg this Post!Add Post to del.icio.usBookmark Post in TechnoratiFurl this Post!
Reply With Quote
  #146 (permalink)  
Old 07-27-2010, 05:05 AM
Junior Member
 
Join Date: Jul 2010
Posts: 2
Thanks: 1
Thanked 0 Times in 0 Posts
PomeLo is on a distinguished road
Default

I read the thread as synchronized audio and video because I have a problem, I flashed my phone to VX -7 Black Pearl
Camcorder will synch the audio of the video, the audio starts to go faster than the video about the minutes from 0:45 to 1:00 and q increases as the minutes passed, this happens in all resolutions and modes on the camcorder.

This is an example of what you record and uploaded to youtube Sample video


and here are the details the example of video Youtube, showed by MediaCoder:-

General
Complete name : C:\Documents and Settings\Administrador\Escritorio\Problem sync audio-video i8910.mp4
Format : MPEG-4
Format profile : Base Media / Version 2
Codec ID : mp42
File size : 121 MiB
Duration : 2mn 11s
Overall bit rate : 7 716 Kbps
Encoded date : UTC 2010-07-27 04:31:48
Tagged date : UTC 2010-07-27 04:31:48

Video
ID : 1
Format : MPEG-4 Visual
Format profile : Simple@L6
Format settings, BVOP : No
Format settings, QPel : No
Format settings, GMC : No warppoints
Format settings, Matrix : Default (H.263)
Codec ID : 20
Duration : 2mn 11s
Bit rate mode : Constant
Bit rate : 7 665 Kbps
Nominal bit rate : 9 227 Kbps
Width : 1 280 pixels
Height : 720 pixels
Display aspect ratio : 16:9
Frame rate mode : Constant
Frame rate : 24.000 fps
Resolution : 8 bits
Colorimetry : 4:2:0
Scan type : Progressive
Bits/(Pixel*Frame) : 0.347
Stream size : 120 MiB (99%)
Encoded date : UTC 2010-07-27 04:31:48
Tagged date : UTC 2010-07-27 04:31:48

Audio
ID : 2
Format : AAC
Format/Info : Advanced Audio Codec
Format version : Version 4
Format profile : LC
Format settings, SBR : No
Codec ID : 40
Duration : 2mn 10s
Bit rate mode : Constant
Bit rate : 48.0 Kbps
Channel(s) : 1 channel
Channel positions : Front: C
Sampling rate : 16.0 KHz
Stream size : 767 KiB (1%)
Encoded date : UTC 2010-07-27 04:31:48
Tagged date : UTC 2010-07-27 04:31:48


is a codec problem or hardware? has anybody an idea?

Thanks

Last edited by PomeLo; 07-27-2010 at 12:36 PM.
Digg this Post!Add Post to del.icio.usBookmark Post in TechnoratiFurl this Post!
Reply With Quote
  #147 (permalink)  
Old 07-27-2010, 06:58 AM
Senior Member
 
Join Date: Jan 2010
Posts: 260
Thanks: 16
Thanked 6 Times in 5 Posts
ashtan is on a distinguished road
Default

Usually it happens for the first video recorded after flash

Subsequent videos should be synched
Digg this Post!Add Post to del.icio.usBookmark Post in TechnoratiFurl this Post!
Reply With Quote
  #148 (permalink)  
Old 07-27-2010, 12:25 PM
Junior Member
 
Join Date: Jul 2010
Posts: 2
Thanks: 1
Thanked 0 Times in 0 Posts
PomeLo is on a distinguished road
Default

Quote:
Originally Posted by ashtan View Post
Usually it happens for the first video recorded after flash

Subsequent videos should be synched
true but this problem is different, the video I uploaded to YouTube is the fourth or fifth test video, I did hard reset and also flash twice with V7 but still the same

PS: add a sample video

Last edited by PomeLo; 07-27-2010 at 12:33 PM.
Digg this Post!Add Post to del.icio.usBookmark Post in TechnoratiFurl this Post!
Reply With Quote
Sponsored Links
Advertisement
 
Reply

Thread Tools
Display Modes

Posting Rules
You may not post new threads
You may not post replies
You may not post attachments
You may not edit your posts

BB code is On
Smilies are On
[IMG] code is On
HTML code is Off
Trackbacks are On
Pingbacks are On
Refbacks are On




eXTReMe Tracker

 

PSP Custom Firmware | PSP Downloads | PSP Forums | PSP Emulator | PSP Hacks | Optimus 2X Forums | Samsung i8910 HD | Galaxy S Forum


All times are GMT +1. The time now is 11:19 PM.
Powered by vBulletin® Version 3.8.8
Copyright ©2000 - 2017, vBulletin Solutions, Inc.
vBulletin Security provided by vBSecurity v2.2.2 (Pro) - vBulletin Mods & Addons Copyright © 2017 DragonByte Technologies Ltd.
Designed By: vBSkinworks